Login
Username:
Password:
[Signup]
[Recover Account]


Browse Torrents

Poll


You must be logged in to view polls



Latest Torrents
Virgin Bhasskar S0...
- [Size: 1.46 GB]

Bigg Boss (2019) H...
- [Size: 583.65 MB]

Dora and the Lost ...
- [Size: 942.80 MB]

Crawl (2019) 720p ...
- [Size: 796.56 MB]

Gemini.Man.2019.HD...
- [Size: 703.66 MB]


Torrent Details For "The Cabin Guard 2019 Bengali 1080p WEB-DL x264 AAC { TaRa }.mkv"

The Cabin Guard 2019 Bengali 1080p WEB-DL x264 AAC { TaRa }.mkv

Download this torrent | Magnet Download
Health:
Seeds: 0
Leechers: 0
Completed:
Last Checked: 09-11-2019 07:38:52
External Torrent
Update Stats



Images Host

Poster
No poster


Images Host


Details
Name:The Cabin Guard 2019 Bengali 1080p WEB-DL x264 AAC { TaRa }.mkv
Description:

The Cabin Guard 2019 Bengali 1080p WEB-DL x264 AAC { TaRa }.mkv
 

===================================================================
General
Complete name               : The Cabin Guard 2019 Bengali 1080p WEB-DL x264 AAC { TaRa }.mkv
Format                      : Matroska
Format version              : Version 4
File size                   : 1.33 GiB
Duration                    : 1 h 25 min
Overall bit rate mode       : Variable
Overall bit rate            : 2 232 kb/s
===================================================================
Video
ID                          : 1
Format                      : AVC
Format/Info                 : Advanced Video Codec
Format profile              : Main@L4
Format settings             : CABAC / 3 Ref Frames
Format settings, CABAC      : Yes
Format settings, Reference  : 3 frames
Codec ID                    : V_MPEG4/ISO/AVC
Duration                    : 1 h 25 min
Bit rate mode               : Variable
Bit rate                    : 2 104 kb/s
Maximum bit rate            : 2 400 kb/s
Width                       : 1 920 pixels
Height                      : 1 080 pixels
Display aspect ratio        : 16:9
Frame rate mode             : Constant
Frame rate                  : 24.000 FPS
Color space                 : YUV
Chroma subsampling          : 4:2:0
Bit depth                   : 8 bits
Scan type                   : Progressive
Bits/(Pixel*Frame)          : 0.042
Stream size                 : 1.26 GiB (94%)
Title                       : .....::::: TaRa ::::::......
Language                    : Bengali
Default                     : Yes
Forced                      : No
===================================================================
Audio
ID                          : 2
Format                      : AAC LC
Format/Info                 : Advanced Audio Codec Low Complexity
Codec ID                    : A_AAC-2
Duration                    : 1 h 25 min
Bit rate                    : 125 kb/s
Channel(s)                  : 2 channels
Channel layout              : L R
Sampling rate               : 48.0 kHz
Frame rate                  : 46.875 FPS (1024 SPF)
Compression mode            : Lossy
Delay relative to video     : -33 ms
Stream size                 : 76.6 MiB (6%)
Title                       : .....::::: TaRa ::::::......
Language                    : Bengali
Default                     : Yes
Forced                      : No
===================================================================


                       











 



Category:Movies > Bengali
Lang:Bengali  Bengali
Total Size:1.33 GB
Info Hash:fb24f56a92a18e8b392f3a89b4bd8ffe7b1ff39f
Added By:SkTaRa
Date Added:09-11-2019 07:38:49
Downloads:44

Ratings:Not Yet Rated (Log in to rate it)


Tracker:
udp://tracker.coppersurfer.tk:6969/announce


File List: 


Comments

No comments still posted

Top
Copyright 2018 Hon3yHD -|- Page Generated In 14.151976 secs.
-|- RSS Feed -|- Feed Info