Login
Username:
Password:
[Signup]
[Recover Account]


Browse Torrents

Poll


You must be logged in to view polls



Latest Torrents
The.Knight.Before....
- [Size: 6.97 GB]

Crawl 2019 BluRay ...
- [Size: 2.73 GB]

Bikram Yogi, Guru,...
- [Size: 944.56 MB]

Dora and the Lost ...
- [Size: 2.88 GB]

Dora and the Lost ...
- [Size: 1.03 GB]


Torrent Details For "The 36Th Chamber Of Shaolin 1978 x264 720p Esub BluRay Dual Audio English Hindi GOPISAHI"

The 36Th Chamber Of Shaolin 1978 x264 720p Esub BluRay Dual Audio English Hindi GOPISAHI

Download this torrent | Magnet Download
Health:
Seeds: 0
Leechers: 0
Completed:
Last Checked: 09-11-2019 01:26:12
External Torrent
Update Stats



Images Host

Poster
No poster


Images Host


Details
Name:The 36Th Chamber Of Shaolin 1978 x264 720p Esub BluRay Dual Audio English Hindi GOPISAHI
Description:
 https://www.gopisahi.in/



The 36Th Chamber Of Shaolin 1978 x264 720p Esub BluRay Dual Audio English Hindi GOPISAHI


Format                         : Matroska

Format version                 : Version 4

File size                      : 908 MiB

Duration                       : 1 h 55 min

Overall bit rate               : 1 095 kb/s

Movie name                     : The 36th Chamber of Shaolin 1978 GOPISAHI


Video

Format                         : AVC

Format/Info                    : Advanced Video Codec

Format profile                 : High@L4.1

Format settings                : CABAC / 12 Ref Frames

Format settings, CABAC         : Yes

Format settings, Reference fra : 12 frames

Codec ID                       : V_MPEG4/ISO/AVC

Duration                       : 1 h 55 min

Bit rate                       : 899 kb/s

Width                          : 1 280 pixels

Height                         : 534 pixels

Display aspect ratio           : 2.40:1

Frame rate mode                : Constant

Frame rate                     : 24.000 FPS

Color space                    : YUV

Chroma subsampling             : 4:2:0

Bit depth                      : 8 bits

Scan type                      : Progressive

Bits/(Pixel*Frame)             : 0.055

Stream size                    : 745 MiB (82%)

Title                          : GOPISAHI

Writing library                : x264 core 157 r2935 545de2f


Audio #1

Format                         : AAC LC

Duration                       : 1 h 55 min

Bit rate                       : 96.0 kb/s

Channel(s)                     : 2 channels

Channel layout                 : L R

Sampling rate                  : 48.0 kHz

Frame rate                     : 46.875 FPS (1024 SPF)

Compression mode               : Lossy

Delay relative to video        : -21 ms

Stream size                    : 80.0 MiB (9%)

Title                          : GOPISAHI

Language                       : Hindi

Default                        : Yes

Forced                         : No


Audio #2

Format                         : AAC LC

Duration                       : 1 h 55 min

Bit rate                       : 96.0 kb/s

Channel(s)                     : 2 channels

Channel layout                 : L R

Sampling rate                  : 48.0 kHz

Frame rate                     : 46.875 FPS (1024 SPF)

Compression mode               : Lossy

Delay relative to video        : -3 ms

Stream size                    : 80.2 MiB (9%)

Title                          : GOPISAHI

Language                       : English

Default                        : No

Forced                         : No


Text

Language                       : English





Category:Movies > Hollywood Dub
Lang:Hindi
Total Size:908.11 MB
Info Hash:5d74069ff0553eb2485a47cee253dda49952ece4
Added By:gopisahi
Date Added:09-11-2019 01:26:10
Downloads:84

Ratings:Not Yet Rated (Log in to rate it)


Tracker:
udp://tracker.coppersurfer.tk:6969/announce


File List: 


Comments

No comments still posted

Top
Copyright 2018 Hon3yHD -|- Page Generated In 20.587024 secs.
-|- RSS Feed -|- Feed Info