Login
Username:
Password:
[Signup]
[Recover Account]


Browse Torrents

Poll


You must be logged in to view polls



Latest Torrents
Dora and the Lost ...
- [Size: 942.80 MB]

Crawl (2019) 720p ...
- [Size: 796.56 MB]

Gemini.Man.2019.HD...
- [Size: 703.66 MB]

Crawl.2019.1080p.I...
- [Size: 3.55 GB]

Dora and the Lost ...
- [Size: 4.59 GB]


Torrent Details For "Teenage Mutant Ninja Turtles Ii The Secret Of The Ooze 1991 x264 720p Esub BluRay Dual Audio En..."

Teenage Mutant Ninja Turtles Ii The Secret Of The Ooze 1991 x264 720p Esub BluRay Dual Audio En...

Download this torrent | Magnet Download
Health:
Seeds: 0
Leechers: 0
Completed:
Last Checked: 09-11-2019 01:22:11
External Torrent
Update Stats



Images Host

Poster
No poster


Images Host


Details
Name:Teenage Mutant Ninja Turtles Ii The Secret Of The Ooze 1991 x264 720p Esub BluRay Dual Audio En...
Description:
 https://www.gopisahi.in/



Teenage Mutant Ninja Turtles Ii The Secret Of The Ooze 1991 x264 720p Esub BluRay Dual Audio English Hindi GOPISAHI


Format                         : Matroska

Format version                 : Version 4

File size                      : 693 MiB

Duration                       : 1 h 33 min

Overall bit rate               : 1 035 kb/s

Movie name                     : Teenage Mutant Ninja Turtles II : The Secret of the Ooze 1991 GOPISAHI


Video

Format                         : AVC

Format/Info                    : Advanced Video Codec

Format profile                 : High@L4.1

Format settings                : CABAC / 12 Ref Frames

Format settings, CABAC         : Yes

Format settings, Reference fra : 12 frames

Codec ID                       : V_MPEG4/ISO/AVC

Duration                       : 1 h 28 min

Bit rate                       : 899 kb/s

Width                          : 1 280 pixels

Height                         : 534 pixels

Display aspect ratio           : 2.40:1

Frame rate mode                : Constant

Frame rate                     : 23.976 (24000/1001) FPS

Color space                    : YUV

Chroma subsampling             : 4:2:0

Bit depth                      : 8 bits

Scan type                      : Progressive

Bits/(Pixel*Frame)             : 0.055

Stream size                    : 569 MiB (82%)

Title                          : GOPISAHI

Writing library                : x264 core 157 r2935 545de2f


Audio #1

Format                         : AAC L

Duration                       : 1 h 28 min

Bit rate                       : 96.0 kb/s

Channel(s)                     : 2 channels

Channel layout                 : L R

Sampling rate                  : 48.0 kHz

Frame rate                     : 46.875 FPS (1024 SPF)

Compression mode               : Lossy

Delay relative to video        : -21 ms

Stream size                    : 60.8 MiB (9%)

Title                          : GOPISAHI

Language                       : Hindi



Audio #2

Format                         : AAC LC

Duration                       : 1 h 28 min

Bit rate                       : 96.0 kb/s

Channel(s)                     : 2 channels

Channel layout                 : L R

Sampling rate                  : 48.0 kHz

Frame rate                     : 46.875 FPS (1024 SPF)

Compression mode               : Lossy

Delay relative to video        : -12 ms

Stream size                    : 60.8 MiB (9%)

Title                          : GOPISAHI

Language                       : English


Text

Language                       : English





Category:Movies > Hollywood Dub
Lang:Hindi
Total Size:692.55 MB
Info Hash:a30dfe8709e29ec844c118ae880ec0cee576b3c9
Added By:gopisahi
Date Added:09-11-2019 01:22:11
Downloads:58

Ratings:Not Yet Rated (Log in to rate it)


Tracker:
udp://tracker.coppersurfer.tk:6969/announce


File List: 


Comments

No comments still posted

Top
Copyright 2018 Hon3yHD -|- Page Generated In 11.389717 secs.
-|- RSS Feed -|- Feed Info