Login
Username:
Password:
[Signup]
[Recover Account]


Browse Torrents

Poll


You must be logged in to view polls



Latest Torrents
Dora and the Lost ...
- [Size: 942.80 MB]

Crawl (2019) 720p ...
- [Size: 796.56 MB]

Gemini.Man.2019.HD...
- [Size: 703.66 MB]

Crawl.2019.1080p.I...
- [Size: 3.55 GB]

Dora and the Lost ...
- [Size: 4.59 GB]


Torrent Details For "The Lion King 2019 1080p BluRay x264 DTS 5.1 MSubS -Hon3yHD"

The Lion King 2019 1080p BluRay x264 DTS 5.1 MSubS -Hon3yHD

Download this torrent | Magnet Download
Health:
Seeds: 139
Leechers: 39
Completed: 3,027 
Last Checked: 10-11-2019 09:07:41
External Torrent
Update Stats



Images Host

Poster
No poster


Images Host


Details
Name:The Lion King 2019 1080p BluRay x264 DTS 5.1 MSubS -Hon3yHD
Description:


The Lion King 2019 1080p BluRay x264 DTS 5.1 MSubS -Hon3yHD


Source: Remux @ Scene. Thanks !


Format                      : Matroska
Format version              : Version 4
File size                   : 4.37 GiB
Duration                    : 1 h 58 min
Overall bit rate            : 5 295 kb/s
Movie name                  : The Lion King 2019 - Hon3yHD


Video
ID                          : 1
Format                      : AVC
Format/Info                 : Advanced Video Codec
Format profile              : High@L4.1
Format settings             : CABAC / 4 Ref Frames
Format settings, CABAC      : Yes
Format settings, Reference  : 4 frames
Codec ID                    : V_MPEG4/ISO/AVC
Duration                    : 1 h 58 min
Bit rate                    : 4 332 kb/s
Width                       : 1 920 pixels
Height                      : 1 080 pixels
Display aspect ratio        : 16:9
Frame rate mode             : Constant
Frame rate                  : 23.976 (24000/1001) FPS
Color space                 : YUV
Chroma subsampling          : 4:2:0
Bit depth                   : 8 bits
Scan type                   : Progressive
Bits/(Pixel*Frame)          : 0.087
Stream size                 : 3.58 GiB (82%)
Writing library             : x264 core 157 r2969 d4099dd
Encoding settings           : cabac=1 / ref=4 / deblock=1:-1:-1 / analyse=0x3:0x133 / me=umh / subme=9 / psy=1 / psy_rd=1.00:0.15 / mixed_ref=1 / me_range=24 / chroma_me=1 / trellis=2 / 8x8dct=1 / cqm=0 / deadzone=21,11 / fast_pskip=0 / chroma_qp_offset=-3 / threads=12 / lookahead_threads=1 / sliced_threads=0 / nr=200 / decimate=1 / interlaced=0 / bluray_compat=0 / constrained_intra=0 / bframes=3 / b_pyramid=2 / b_adapt=2 / b_bias=0 / direct=3 / weightb=1 / open_gop=0 / weightp=2 / keyint=250 / keyint_min=23 / scenecut=40 / intra_refresh=0 / rc_lookahead=60 / rc=2pass / mbtree=1 / bitrate=4332 / ratetol=1.0 / qcomp=0.60 / qpmin=0 / qpmax=69 / qpstep=4 / cplxblur=20.0 / qblur=0.5 / ip_ratio=1.40 / aq=1:1.00
Language                    : English
Default                     : Yes
Forced                      : No
Color range                 : Limited
Color primaries             : BT.709
Transfer characteristics    : BT.709
Matrix coefficients         : BT.709

Audio #1
ID                          : 2
Format                      : DTS
Format/Info                 : Digital Theater Systems
Codec ID                    : A_DTS
Duration                    : 1 h 58 min
Bit rate mode               : Constant
Bit rate                    : 768 kb/s
Channel(s)                  : 6 channels
Channel layout              : C L R Ls Rs LFE
Sampling rate               : 48.0 kHz
Frame rate                  : 93.750 FPS (512 SPF)
Bit depth                   : 24 bits
Compression mode            : Lossy
Stream size                 : 650 MiB (15%)
Language                    : English
Default                     : Yes
Forced                      : No

Audio #2
ID                          : 3
Format                      : AC-3
Format/Info                 : Audio Coding 3
Commercial name             : Dolby Digital
Codec ID                    : A_AC3
Duration                    : 1 h 58 min
Bit rate mode               : Constant
Bit rate                    : 192 kb/s
Channel(s)                  : 2 channels
Channel layout              : L R
Sampling rate               : 48.0 kHz
Frame rate                  : 31.250 FPS (1536 SPF)
Bit depth                   : 16 bits
Compression mode            : Lossy
Stream size                 : 162 MiB (4%)
Language                    : English
Service kind                : Complete Main
Default                     : No
Forced                      : No

Text #1
ID                          : 4
Format                      : UTF-8
Codec ID                    : S_TEXT/UTF8
Codec ID/Info               : UTF-8 Plain Text
Duration                    : 1 h 50 min
Bit rate                    : 49 b/s
Count of elements           : 1547
Stream size                 : 40.0 KiB (0%)
Language                    : English
Default                     : Yes
Forced                      : No

Text #2
ID                          : 5
Format                      : UTF-8
Codec ID                    : S_TEXT/UTF8
Codec ID/Info               : UTF-8 Plain Text
Duration                    : 1 h 52 min
Bit rate                    : 55 b/s
Count of elements           : 1738
Stream size                 : 45.1 KiB (0%)
Language                    : English
Default                     : No
Forced                      : No

Text #3
ID                          : 6
Format                      : UTF-8
Codec ID                    : S_TEXT/UTF8
Codec ID/Info               : UTF-8 Plain Text
Duration                    : 1 h 52 min
Bit rate                    : 57 b/s
Count of elements           : 1710
Stream size                 : 47.2 KiB (0%)
Language                    : English
Default                     : No
Forced                      : No

Text #4
ID                          : 7
Format                      : UTF-8
Codec ID                    : S_TEXT/UTF8
Codec ID/Info               : UTF-8 Plain Text
Duration                    : 1 h 46 min
Bit rate                    : 52 b/s
Count of elements           : 1371
Stream size                 : 41.2 KiB (0%)
Language                    : Spanish
Default                     : No
Forced                      : No

Text #5
ID                          : 8
Format                      : UTF-8
Codec ID                    : S_TEXT/UTF8
Codec ID/Info               : UTF-8 Plain Text
Duration                    : 1 h 53 min
Bit rate                    : 107 b/s
Count of elements           : 1990
Stream size                 : 89.0 KiB (0%)
Language                    : French
Default                     : No
Forced                      : No

Text #6
ID                          : 9
Format                      : UTF-8
Codec ID                    : S_TEXT/UTF8
Codec ID/Info               : UTF-8 Plain Text
Duration                    : 1 h 53 min
Bit rate                    : 106 b/s
Count of elements           : 1989
Stream size                 : 88.2 KiB (0%)
Language                    : Spanish
Default                     : No
Forced                      : No

Menu
00:00:00.000                : en:Chapter 01
00:04:50.498                : en:Chapter 02
00:10:51.067                : en:Chapter 03
00:17:47.691                : en:Chapter 04
00:23:53.014                : en:Chapter 05
00:30:00.131                : en:Chapter 06
00:33:05.066                : en:Chapter 07
00:37:09.310                : en:Chapter 08
00:43:42.911                : en:Chapter 09
00:50:47.335                : en:Chapter 10
00:55:02.716                : en:Chapter 11
00:59:48.459                : en:Chapter 12
01:06:27.233                : en:Chapter 13
01:14:32.092                : en:Chapter 14
01:18:26.410                : en:Chapter 15
01:23:07.899                : en:Chapter 16
01:28:04.654                : en:Chapter 17
01:33:10.876                : en:Chapter 18
01:37:13.744                : en:Chapter 19
01:44:39.189                : en:Chapter 20
01:47:47.335                : en:Chapter 21

 
 
 
 
 
 
 
Category:Movies > 1080P Bluray
Lang:English  English
Total Size:4.42 GB
Info Hash:8b929f987b35cdedefd9b82869670312ca45ae33
Added By:Hon3y
Date Added:17-10-2019 13:56:26
Downloads:1,179

Ratings:Not Yet Rated (Log in to rate it)


Tracker:
udp://tracker.coppersurfer.tk:6969/announce


File List: 


Comments

No comments still posted

Top
Copyright 2018 Hon3yHD -|- Page Generated In 26.904184 secs.
-|- RSS Feed -|- Feed Info